(navigation image)
Home Audio Books & Poetry | Community Audio | Computers & Technology | Grateful Dead | Live Music Archive | Music, Arts & Culture | Netlabels | News & Public Affairs | Non-English Audio | Podcasts | Radio Programs | Spirituality & Religion | The Shady Trees
Search: Advanced Search
Anonymous User (login or join us)
Upload

Listen to audio

item image

Stream (help[help])

VBR M3U
MP3 via M3U

Play / Download (help[help])

VBR ZIP

Ogg Vorbis

Lossless zip


All Files: HTTPS Torrent (2/0)

Resources

Bookmark

John Butler TrioJohn Butler Trio Live at Gathering Of The Vibes Festival on 2011-07-24 (July 24, 2011)

something has gone horribly wrong 8-p
Prefer flash? · Embed · Questions/Feedback?


Collection: JohnButlerTrio
Band/Artist: John Butler Trio
Date: July 24, 2011 (check for other copies)
Venue: Gathering Of The Vibes Festival
Location: Bridgeport CT

Source: studio projects LSD-2 (mid-side, on stand, 8') > sound devices mp2 > edirol r09 (24/48)
Lineage: soundforge 9.0 (Voxengo MSED plugin v2.3 [-6.3 mid, +1.4 side], -1.68 dB left channel, +1.75 dB right channel, tracking, fades, resample, dither) > flac 1.2.1b
Taped by: Peter W. King
Transferred by: Peter W. King


Description

John Butler Trio
July 24, 2011
Gathering Of The Vibes Festival
Seaside Park
Bridgeport CT

*** THIS IS A 24-BIT FILESET NOT INTENDED FOR AUDIO CD ***

SOURCE: studio projects LSD-2 (mid-side, on stand, 8') > sound devices mp2 > edirol r09 (24/48)
PROCESSING: soundforge 9.0 (Voxengo MSED plugin v2.3 [-6.3 mid, +1.4 side], -1.68 dB left channel, +1.75 dB right channel, tracking, fades) > flac 1.2.1b

01 Intro
02 Company Sin >
03 Used To Get High >
04 Pickapart
05 One Way Road
06 Gonna Be A Long Time *
07 Treat Your Momma
08 Ocean #
09 Revolution
10 Don't Wanna See Your Face
11 Mr. Hankey >
12 Better Than
13 Zebra $
14 Close To You
15 pre-encore crowd
16 encore intro
17 Losing You #
18 Funky Tonight

Notes:
* Michael From Mama Kin On Keys
# John Butler Solo
$ Mama Kin Drums and Keys

Notes

length expanded size cdr WAVE problems fmt ratio filename
0:56.405 16244780 B cxx -- ---xx flac 0.5930 johnbutlertrio2011-07-24_lsdII_t01.flac
6:06.080 105431084 B cxx -- ---xx flac 0.6533 johnbutlertrio2011-07-24_lsdII_t02.flac
4:02.859 69943340 B cxx -- ---xx flac 0.6787 johnbutlertrio2011-07-24_lsdII_t03.flac
7:40.203 132538412 B cxx -- ---xx flac 0.6567 johnbutlertrio2011-07-24_lsdII_t04.flac
6:22.942 110287484 B cxx -- ---xx flac 0.6334 johnbutlertrio2011-07-24_lsdII_t05.flac
4:33.697 78824924 B cxx -- ---xx flac 0.6730 johnbutlertrio2011-07-24_lsdII_t06.flac
10:57.408 189333548 B cxx -- ---xx flac 0.6563 johnbutlertrio2011-07-24_lsdII_t07.flac
13:08.597 227116076 B cxx -- ---xx flac 0.6410 johnbutlertrio2011-07-24_lsdII_t08.flac
6:37.237 114404396 B cxx -- ---xx flac 0.6720 johnbutlertrio2011-07-24_lsdII_t09.flac
7:08.459 123396140 B cxx -- ---xx flac 0.6468 johnbutlertrio2011-07-24_lsdII_t10.flac
0:35.968 10358828 B cxx -- ---xx flac 0.6690 johnbutlertrio2011-07-24_lsdII_t11.flac
5:33.824 96141356 B cxx -- ---xx flac 0.6547 johnbutlertrio2011-07-24_lsdII_t12.flac
5:34.080 96215084 B cxx -- ---xx flac 0.6824 johnbutlertrio2011-07-24_lsdII_t13.flac
7:24.637 128055386 B cxx -- ---xx flac 0.6813 johnbutlertrio2011-07-24_lsdII_t14.flac
0:59.257 17065982 B cxx -- ---xx flac 0.6016 johnbutlertrio2011-07-24_lsdII_t15.flac
0:52.523 15126572 B cxx -- ---xx flac 0.5866 johnbutlertrio2011-07-24_lsdII_t16.flac
6:11.797 107077676 B cxx -- ---xx flac 0.6102 johnbutlertrio2011-07-24_lsdII_t17.flac
18:12.139 314535980 B cxx -- ---xx flac 0.6857 johnbutlertrio2011-07-24_lsdII_t18.flac
112:58.112 1952097048 B 0.6585 (18 files)

Individual Files

Audio Files 24bit Flac VBR MP3 Ogg Vorbis
Intro 9.2 MB
1.3 MB
665.0 KB
Company Sin > 65.7 MB
8.5 MB
4.1 MB
Used To Get High > 45.3 MB
5.7 MB
2.7 MB
Pickapart 83.0 MB
10.8 MB
5.2 MB
One Way Road 66.6 MB
8.9 MB
4.3 MB
Gonna Be A Long Time * 50.6 MB
6.4 MB
3.1 MB
Treat Your Momma 118.5 MB
15.8 MB
7.4 MB
Ocean # 138.8 MB
18.6 MB
8.8 MB
Revolution 73.3 MB
9.4 MB
4.5 MB
Don't Wanna See Your Face 76.1 MB
10.0 MB
4.9 MB
Mr. Hankey > 6.6 MB
874.7 KB
413.1 KB
Better Than 60.0 MB
7.8 MB
3.8 MB
Zebra $ 62.6 MB
7.9 MB
3.9 MB
Close To You 83.2 MB
10.6 MB
5.2 MB
pre-encore crowd 9.8 MB
1.5 MB
766.2 KB
encore intro 8.5 MB
1.2 MB
600.4 KB
Losing You # 62.3 MB
8.7 MB
4.1 MB
Funky Tonight 205.7 MB
25.9 MB
12.6 MB
Information FormatSize
johnbutlertrio2011-07-24.lsdII.flac24.ffp Flac FingerPrint 1.3 KB
johnbutlertrio2011-07-24.lsdII.flac24.md5 Checksums 1.3 KB
johnbutlertrio2011-07-24_lsdII.md5 Checksums 1.3 KB
johnbutlertrio2011-07-24.lsdII.flac24_files.xml Metadata [file]
johnbutlertrio2011-07-24.lsdII.flac24_meta.xml Metadata 5.3 KB
Other Files Archive BitTorrent Unknown Text
johnbutlertrio2011-07-24.lsdII.flac24_archive.torrent 41.1 KB
johnbutlertrio2011-07-24_lsdII.st5 1.5 KB
johnbutlertrio2011-07-24_lsdII.txt 2.8 KB

Be the first to write a review
Downloaded 386 times
Reviews